Jefferson airplane discography mega

Album Highlights Jefferson Airplane Volunteers Jefferson Airplane Takes Off Jefferson Airplane Long John Silver Jefferson Airplane Crown of Creation Jefferson Airplane The Essential Jefferson … Jefferson Airplane Jefferson Airplane Love … See Full Discography AllMusic Quiz Related Artists Associated with Paul Kantner Similar to The Doors Dec 2, 2020 · Artista: Jefferson Airplane | Álbumes: 15 Estudio | Actividad: 1965 – 1996 | Formato: MP3 320 Kbps rar | Discográfica: RCA Victor | Integrantes: 8 País: Estados Unidos | Fuente: https://www.discografiasmega.com. Discography Jefferson Airplane download fue una banda de origen estadounidense del genero rock iniciando su trayectoria musical en el año 1965 continuando así hasta el año 1996 el grupo estaba conformado por Grace Slick, Signe Toly Anderson †, Marty Balin †, Bob Harvey. refrigerator 35 x 68 Jeśli nie zmienisz ustawień dotyczących cookies w Twojej przeglądarce, wyrażasz zgodę na ich umieszczanie na Twoim komputerze przez administratora serwisu Chomikuj.pl – Ke The following is a comprehensive discography of Jefferson Airplane, an American rock band which formed in San Francisco in 1965. Contents. 1 Albums. 1.1 Studio albums; 1.2 Compilation and live albums; ... The Best of Jefferson Airplane (1980) Time Machine (1984) White Rabbit & Other Hits (1990) The Best of Jefferson Airplane (1992) h23a1 header Day Two, Performer 14: Jefferson Airplane. Performed Sunday morning, August 17, 7:00–8:45 am. Jefferson Airplane performed early Sunday morning, the last set of a long Saturday Woodstock roster. Left to right: Grace Slick, Spencer Dryden, Marty Balin, Jorma Kaukonen, and Jack Casady (out of frame: Paul Kantner and Nicky Hopkins). Jefferson Airplane Albums and Discography | AllMusic Discography Jefferson Airplane Follow Artist + The quintessential San Francisco psychedelic band and a defining force in pop before turning toward political statements in the late '60s. Read Full Biography Overview Biography Discography Songs Credits Related Share on facebook twitter tumblr costco digital piano Some of the most successful country-rock singers of the 1980s include Emmylou Harris, George Strait, and Vince Gill. These singers popularized the genre and made it into one of the most well-known. ジェファーソン・エアプレイン(Jefferson Airplane)は、アメリカ合衆国出身のロック・バンド。. 60年代のアメリカンにおけるロック黄金時代から活動するバンドの一つで、サイケデリック文化を象徴する代表的グループ。 一度解散後、ジェファーソン・スターシップ(Jefferson Starship)に改名して ...Grunt issued the compilation Flight Log (1966-1976) at the start of 1977, filling the two LPs with tracks by Jefferson Airplane, Jefferson Starship, and various other spinoff acts. 2400 Fulton Street: An Anthology, named after the address of a house owned by the band in the '60s, was a two-disc set released in 1987. When DJing live, Muro also is known for often doing 7"/45-only DJ sets, playing anything and everything; from disco to boogie to funk to soul Muro do Classic Rock: Pholhas - Discografia Descargar Discografia Bruno Mars 320 kbps [MEGA] Cuentas Netflix Gratis al 07/03/2016 Dopo quasi un anno di stop, Il Muro del Canto torna in concerto per un. inflate me quizbaltic brown granite price. What happened to the original lead singer of chicago. SHA NA NA celebrated their 50th anniversary in 2020 as well as the 50th anniversary of The WOODSTOCK FESTIVAL appearing at the original site in BETHEL N.Y. Rock & Roll doo-wop legends, SHA NA NA combined their love for the classics of rock & roll with a dynamic theatrical approach as fellow college students at ... goddess story cards Jefferson Airplane. Pop/Rock - Released by RCA - Legacy on Feb 1, 1969. Jefferson Airplane's first live album demonstrated the group's development as concert performers, taking a number of songs that had been performed in ... 16-Bit CD Quality 44.1 kHz - Stereo. Starting at $13.09. May 07, 2020 · Jefferson Airplane | Discografia | Discogs Mais imagens Jefferson Airplane Perfil: American psychedelic rock band from San Francisco, CA. During the late 1960s, the …PERFORMER "Jefferson Airplane" INDEX 00 09:08:37 INDEX 01 09:10:06 TRACK 05 AUDIO TITLE "Comin' Back To Me" PERFORMER "Jefferson Airplane" INDEX 00 12:07:47 INDEX …Jefferson Airplane - Bringing Me Down 4.1K Jefferson Airplane - It's No Secret 7.2K Jefferson Airplane - Tobacco Road 3.9K Jefferson Airplane - Come Up the Years 1.7K Jefferson Airplane - Run Around 3K Jefferson Airplane - Let's Get Together 1.5K Jefferson Airplane - Don't Slip Away 1.1K Jefferson Airplane - Chauffeur Blues 1.3K Join others and track this artist · Jefferson Airplane, a rock band based in San Francisco, California, was one of the pioneering bands of psychedelic rock.Sign up for Deezer for free and listen to Jefferson Airplane: discography, top tracks and playlists. Starring at the most iconic rock events of the 1960s - the Woodstock, Monterey and Altamont festivals - Jefferson Airplane had an indelible influence on the flower power decade as pioneers of psyc.. Jefferson Airplane Jefferson Airplane biography Founded in San Francisco, USA in 1965 - Disbanded in 1972 - Reunited briefly in 1989 Jefferson Airplane is one of the major psychedelic acts from US West Coast, with their great musicianship and their groundbreaking attitude which can be seen in their lyrics and album covers. telford police Tracklist. 1. Streetmasse : The Ballad of You and Me and Pooneil. 2. Streetmasse : A Small Package of Value Will Come To You, Shortly. 3. Streetmasse : Young Girl Sunday Blues. 4. The War Is Over : Martha.Jefferson Airplane [Discography] 1966: Jefferson Airplane Takes Off [2003 Remastered] 1967: Surrealistic Pillow [2003 Remastered] 1967: After Bathing at Baxter's 1968: Crown of Creation 1969: Bless Its Pointed Little Head [2004 Remastered] 1969: Volunteers [2004 Remastered] 1971: Bark 1972: Long John Silver 1989: Jefferson Airplane campground host jobs in arizona Artist: Jefferson Airplane. Genre: Psychedelic Rock, Folk Rock, Acid Rock. Country: USA. Studio Albums: 1966/2003 - Jefferson Airplane Takes Off (BMG Heritage ‎– 82876 50352 2 USA) 1967/2003 - After Bathing At Baxter's (BMG …Jefferson Airplane was an American rock band from San Francisco, originally active from 1965 to 1972.. According to Jorma Kaukonen, the name came from a friend of his, Steve Talbot, who jokingly dubbed him "Blind Thomas Jefferson Airplane" as a parody of the sort of nicknames Blues singers frequently adopted (possibly with Blind Lemon Jefferson in mind). sterilite corporation Plus Icon Click to expand the Mega Menu. Plus Icon Click to Expand Search Input. Have a News Tip? ... Jefferson Airplane, “Triad” (1968) Pop’s first great paean to the ménage à trois, free ...Jefferson Airplane | Discography | Discogs Jefferson Airplane More Images Profile: American psychedelic rock band from San Francisco, CA. During the late 1960s, the band (along with The Grateful Dead) epitomized San Francisco's Haight-Ashbury culture. The band began in 1965 when singer Marty Balin met guitarist Paul Kantner. pennysaver inland empire pets 2019/02/05 ... Download torrent Jefferson Starship & Starship «Starship Enterprise: The Best Of Jefferson Starship And Starship» ( 2019) (Classic Rock) in ...The Essential Jefferson Airplane (2005) (compilation album) (Legacy Recordings) Last Flight (2007) (live at Winterland, San Francisco - September 22, 1972) Paul Kantner / Jefferson Starship. Blows Against The Empire (1970) Compilation albums credited to 'Jefferson Airplane/Jefferson Starship/Starship' Hits (1998) VH1 Behind the Music (2000 ... greenville oh obituaries Tracklist. 1. Streetmasse : The Ballad of You and Me and Pooneil. 2. Streetmasse : A Small Package of Value Will Come To You, Shortly. 3. Streetmasse : Young Girl Sunday Blues. 4. …The "classic" lineup of Jefferson Airplane, from October 1966 to February 1970, was Grace Slick (vocals), Paul Kantner (guitar, vocals), Marty Balin (guitar, vocals), Jorma Kaukonen (lead guitar, vocals), Jack Casady (bass), and Spencer Dryden (drums). The group broke up in 1972 and split into two bands: Hot Tuna and Jefferson Starship.Jefferson Airplane. Jefferson Airplane was the first of the San Francisco psychedelic rock groups of the 1960s to achieve national recognition. Although the Grateful Dead ultimately …Jan 20, 2023 · A dozen of David Crosby’s best, most angelic musical moments from a long and storied career, including Byrds, CSNY and solo material.. Listen to Jefferson Airplane in unlimited on Qobuz and buy the albums in Hi-Res 24-Bit for an unequalled sound quality. Subscription from 12.50€/month Streaming plans Download store Magazine Our ecosystemJefferson Airplane. Jefferson Airplane was the first of the San Francisco psychedelic rock groups of the 1960s to achieve national recognition. Although the Grateful Dead ultimately proved more long-lived and popular, Jefferson Airplane defined the San Francisco sound in the '60s, with the acid rock guitar playing of Jorma Kaukonen and the soaring twin vocals of Grace Slick and Marty Balin ... kvb Jefferson Airplane. Jefferson Airplane was the first of the San Francisco psychedelic rock groups of the 1960s to achieve national recognition. Although the Grateful Dead ultimately proved more long-lived and popular, Jefferson Airplane defined the San Francisco sound in the '60s, with the acid rock guitar playing of Jorma Kaukonen and the soaring twin vocals of Grace Slick and Marty Balin ... goat farm south carolina Jefferson Airplane - Runnin' Round This World 2:43 Jefferson Airplane - It's No Secret 2:43 Jefferson Airplane - Tobacco Road 3:33 Jefferson Airplane - Come Up The Years 2:36 Jefferson Airplane - Run Around 2:43 Jefferson Airplane - Let's Get Together 3:39 Jefferson Airplane - Don't Slip Away 2:37 Jefferson Airplane - Chauffeur Blues 2:31VOZ CONTRA MURO By Phono Musica discrografias Rock Mega, Discografia de musica en 320 Disco de propósito general para desbastes y remoción de soldaduras Jesus Te Amarei Range Rover Gearbox Reset Chonnie-On-Chon 03 Chonnie-On-Chon 03. sale muchas gracias por la discografia esta muy chida solo tube pedos con un link, pero ya ni pedos sale.The Best of Jefferson Airplane (1980) Time Machine (1984) White Rabbit & Other Hits (1990) The Best of Jefferson Airplane (1992) Feed Your Head: Live '67–'69 (1996) Journey: The Best of Jefferson Airplane (1996) Jefferson Airplane and Beyond (1997) Through the Looking Glass (1999) The Roar of Jefferson Airplane (2001) duck jokes dirty Grunt issued the compilation Flight Log (1966-1976) at the start of 1977, filling the two LPs with tracks by Jefferson Airplane, Jefferson Starship, and various other spinoff acts. 2400 Fulton Street: An Anthology, named after the address of a house owned by the band in the '60s, was a two-disc set released in 1987. metabolic renewal type 4 meal plan Jefferson Airplane | Discography | Discogs Jefferson Airplane More Images Profile: American psychedelic rock band from San Francisco, CA. During the late 1960s, the band (along with The Grateful Dead) epitomized San Francisco's Haight-Ashbury culture. The band began in 1965 when singer Marty Balin met guitarist Paul Kantner.The Essential Jefferson Airplane (2005) (compilation album) (Legacy Recordings) Last Flight (2007) (live at Winterland, San Francisco - September 22, 1972) Paul Kantner / Jefferson Starship. Blows Against The Empire (1970) Compilation albums credited to 'Jefferson Airplane/Jefferson Starship/Starship' Hits (1998) VH1 Behind the Music (2000 ...The Essential Jefferson Airplane (2005) (compilation album) (Legacy Recordings) Last Flight (2007) (live at Winterland, San Francisco - September 22, 1972) Paul Kantner / Jefferson Starship. Blows Against The Empire (1970) Compilation albums credited to 'Jefferson Airplane/Jefferson Starship/Starship' Hits (1998) VH1 Behind the Music (2000 ...valkokoev. Jefferson Airplane was an American rock band formed in San Francisco, California, in 1965. A pioneer of the psychedelic rock movement, Jefferson Airplane was the first band from the San Francisco scene to achieve mainstream commercial and critical success. The band performed at all three of the most famous American rock festivals of ... ubuntu intel wifi not working Jan 20, 2023 · But it was a cool and spooky-sounding Grace Slick and a slow, twanging Jefferson Airplane that made the Crosby-penned “Triad” truly trippy and beautiful. Crosby, Stills & Nash, “Guinnevere ... Jefferson Airplane | Discography | Discogs Jefferson Airplane More Images Profile: American psychedelic rock band from San Francisco, CA. During the late 1960s, the band (along with The Grateful Dead) epitomized San Francisco's Haight-Ashbury culture. The band began in 1965 when singer Marty Balin met guitarist Paul Kantner. celebrity autopsies reddit Some of the most successful country-rock singers of the 1980s include Emmylou Harris, George Strait, and Vince Gill. These singers popularized the genre and made it into one of the most well-known.Grunt issued the compilation Flight Log (1966-1976) at the start of 1977, filling the two LPs with tracks by Jefferson Airplane, Jefferson Starship, and various other spinoff acts. 2400 Fulton Street: An Anthology, named after the address of a house owned by the band in the '60s, was a two-disc set released in 1987. upenn hr contact Jefferson Airplane are widely considered one of the best bands of the 60s, and one of the best psychedelic rock bands of all time. This, then, is a crowd-voted list of the best Jefferson Airplane albums, including pictures of the album covers when available. This Jefferson Airplane discography is...Descargar Discografia Jefferson Airplane por mega 320 kbps. Contraseña de todos los Albumes. www.discografiasmega.com. Descargar Jefferson Airplane – Jefferson Airplane Takes Off [1966] MEGA [ClickAqui] Descargar Jefferson Airplane – Surrealistic Pillow [1967] MEGA [ClickAqui](Psychedelic Rock) Jefferson Airplane / Starship Complete Discography (lossless APE/FLAC) :: RuTracker.org (Psychedelic Rock) Jefferson Airplane / Starship Complete Discography (lossless APE/FLAC) Страницы : 1, 2 След. Рок-музыка » Зарубежный Rock » Classic Rock & Hard Rock (lossless) Страница 1 из 2 Plus Icon Click to expand the Mega Menu. Plus Icon Click to Expand Search Input. Have a News Tip? ... Jefferson Airplane, “Triad” (1968) Pop’s first great paean to the ménage à trois, free ...valkokoev. Jefferson Airplane was an American rock band formed in San Francisco, California, in 1965. A pioneer of the psychedelic rock movement, Jefferson Airplane was the first band from the San Francisco scene to achieve mainstream commercial and critical success. The band performed at all three of the most famous American rock festivals of ... stork lenormand combinations Jefferson Airplane biography Founded in San Francisco, USA in 1965 - Disbanded in 1972 - Reunited briefly in 1989 Jefferson Airplane is one of the major psychedelic acts from US West Coast, with their great musicianship and their groundbreaking attitude which can be seen in their lyrics and album covers. Artist: Jefferson Airplane Album: Discography Year: 1966-2013 Label: RCA/BMG Heritage, Epic, Iconoclassic/Sony Music Genre: Rock, Psychedelic Rock, Folk Rock, Acid Rock Quality: FLAC (*image, tracks+.cue,log,scans) / MP3 320 kbps Total Size: 9,2 Gb/9,6 Gb American psychedelic rock band from San Francisco, CA. mtool icloud bypass meid and gsm crack 1993 dodge dakota codes nba youngboy house address utah fs22 ford truck mods jeep grand cherokee tipm replacement kerkese per ...Originally released in 1987 as a double LP containing 25 tracks, 2400 Fulton Street is a compilation album of music by Jefferson Airplane named after this iconic location. The Blues Brothers stayed here following the New Year's Eve 1979 final show at the Winterland Ballroom. Jefferson Airplane Discography. 1966 - Jefferson Airplane Takes Off cuphead x reader wattpad Jefferson Airplane | Discographie | Discogs Jefferson Airplane Plus d'images Profil: American psychedelic rock band from San Francisco, CA. During the late 1960s, the band (along with The Grateful Dead) epitomized San Francisco's Haight-Ashbury culture. The band began in 1965 when singer Marty Balin met guitarist Paul Kantner.Jefferson Airplane, “Triad” (1968) Pop’s first great paean to the ménage à trois, free love and science fiction was initially recorded by the Byrds (but unreleased during Crosby’s time there),...Founding members also included Signe Toly Anderson and Skip Spence. Later lineups of Jefferson Airplane included Joey Covington on Drums, and Papa John Creach on violins. Around 1973 they disbanded, forming a generation of new bands including Jefferson Starship, Hot Tuna, and more. In 1989 a short reunion occurred, 1996 the band was inducted to ... paw patrol look out tower May 21, 2018 · Jefferson Airplane are widely considered one of the best bands of the 60s, and one of the best psychedelic rock bands of all time. This, then, is a crowd-voted list of the best Jefferson Airplane albums, including pictures of the album covers when available. This Jefferson Airplane discography is... Discography Reviews Official website Jefferson Airplane biography Founded in San Francisco, USA in 1965 - Disbanded in 1972 - Reunited briefly in 1989 Jefferson Airplane is one of the major psychedelic acts from US West Coast, with their great musicianship and their groundbreaking attitude which can be seen in their lyrics and album covers.- Jefferson Airplane Takes Off - Surrealistic Pillow - After Bathing At Baxters - Crown Of Creation - Jefferson Airplane / Crown of creation - Volunteers - B... conan exiles stamina regeneration time Marty Balin left the band in 1971. After 1972, Jefferson Airplane effectively split into two groups. Kaukonen and Casady moved on full time to their own band, Hot Tuna. Slick, Kantner, and the remaining members of Jefferson Airplane recruited new members and regrouped as Jefferson Starship in 1974, with Marty Balin eventually joining them.Jefferson Airplane | Discographie | Discogs Jefferson Airplane Plus d'images Profil: American psychedelic rock band from San Francisco, CA. During the late 1960s, the band (along with The Grateful Dead) epitomized San Francisco's Haight-Ashbury culture. The band began in 1965 when singer Marty Balin met guitarist Paul Kantner.Information on Jefferson Airplane. Complete discography, ratings, reviews and more. Best Albums. ... Jefferson Airplane Takes Off. LP. 65. critic score (2) 71. user score deliverance prayer for mental illness and a sound mindJefferson Airplane released eight studio albums, four live albums, and seven compilations. The band’s first album, Jefferson Airplane Takes Off, was released in 1966. Their last album, Long John Silver, was released in 1972. What Was Jefferson AirplaneS Biggest Hit?Flight Log, 1966-1976 (1977) (compilation album, also includes tracks by Jefferson Starship, Hot Tuna, as well as solo tracks) Time Machine (1984) (compilation album) 2400 Fulton Street (1987) (compilation album) Jefferson Airplane (1989) (1989 'reunion' album) White Rabbit & Other Hits (1990) (compilation album) lane furniture catalog 1960 Jefferson Airplane discography. Quite the same Wikipedia. Just better. To install click the Add extension button. That's it. The source code for the WIKI 2 extension is being checked by specialists of the Mozilla Foundation, Google, and Apple. You could also do …Jefferson Airplane - Somebody To Love, American Bandstand, 1967 2:58 Jefferson Airplane - Somebody to Love (Official Audio) 2:59 Jefferson Airplane - Today 3:05 Jefferson Airplane - It's No Secret 2:43 Jefferson Airplane - Embryonic Journey 1:58 Jefferson AIrplane - Martha 3:30 Jefferson Airplane - Martha 3:28 The Ballad of You & Me & Pooneil 4:31 Discography 497 Credits 14 Filmography 9 Album Showing all (9) Issues Average Ratings Reviews Title / Release Date +16 3.34 1,969 54 Jefferson Airplane Takes Off 1966 +43 3.80 11,772 221 Surrealistic Pillow 1967 +27 3.66 3,951 112 After Bathing at Baxter's 1967 +24 3.63 2,629 68 Crown of Creation 1968 +31 3.66 3,569 103 Volunteers 1969 +15 3.21 875 Discography. Jefferson Airplane. Follow Artist +. The quintessential San Francisco psychedelic band and a defining force in pop before turning toward ... soupa saiyan Jefferson Airplane Jefferson Airplane. San Francisco, California; Psychedelic Rock ; 149 Followers; Jefferson Airplane was the first of the San Francisco psychedelic rock groups of the 1960s to achieve national recognition. Although the Grateful Dead ultimately proved more long-lived and popular, Jefferson Airplane defined ...Jefferson Airplane [Discography] 1966: Jefferson Airplane Takes Off [2003 Remastered] 1967: Surrealistic Pillow [2003 Remastered] 1967: After Bathing at Baxter's 1968: Crown of Creation 1969: Bless Its Pointed Little Head [2004 Remastered] 1969: Volunteers [2004 Remastered] 1971: Bark 1972: Long John Silver 1989: Jefferson AirplaneIt works just fine, I will upload my xprealistic 2.1.0 cracked just nornally, dont need to do nothing just paste in the plugins folder, give me 3 days.The American rock band Jefferson Airplane was formed in San Francisco in the mid-1960s. The group was one of the first to usher in the era of psychedelic rock, and their 1967 album Surrealistic Pillow is often regarded as one of the key recordings of that genre. The band's most successful single, "Somebody to Love", was released in 1967 ... cleveland county accident reports Jefferson Airplane. American psychedelic rock band from San Francisco, CA. …Jefferson Airplane released eight studio albums, four live albums, and seven compilations. The band’s first album, Jefferson Airplane Takes Off, was released in 1966. Their last album, Long John Silver, was released in 1972. What Was Jefferson AirplaneS Biggest Hit? Jefferson Airplane Discography 1966 – Jefferson Airplane Takes Off 1967 – Surrealistic Pillow 1967 – After Bathing at Baxter’s 1968 – Crown of Creation 1969 – Volunteers 1969 – Bless Its Pointed Little Head 1970 – The Worst of Jefferson Airplane 1971 – Bark 1972 – Long John Silver 1973 – Thirty Seconds Over Winterland 1974 – Early FlightPERFORMER "Jefferson Airplane" INDEX 00 09:08:37 INDEX 01 09:10:06 TRACK 05 AUDIO TITLE "Comin' Back To Me" PERFORMER "Jefferson Airplane" INDEX 00 12:07:47 INDEX 01 12:09:42 TRACK 06 AUDIO TITLE "3/5 Of A Mile In 10 Seconds" PERFORMER "Jefferson Airplane" INDEX 00 17:24:45 INDEX 01 17:27:44 TRACK 07 AUDIO TITLE "D.C.B.A. - 25" PERFORMER ... 2009 e ton beamer scooter Founding members also included Signe Toly Anderson and Skip Spence. Later lineups of Jefferson Airplane included Joey Covington on Drums, and Papa John Creach on violins. Around 1973 they disbanded, forming a generation of new bands including Jefferson Starship, Hot Tuna, and more. In 1989 a short reunion occurred, 1996 the band was inducted to ...Jefferson Airplane [Discography] 1966: Jefferson Airplane Takes Off [2003 Remastered] 1967: Surrealistic Pillow [2003 Remastered] 1967: After Bathing at Baxter's 1968: Crown of Creation 1969: Bless Its Pointed Little Head [2004 Remastered] 1969: Volunteers [2004 Remastered] 1971: Bark 1972: Long John Silver 1989: Jefferson Airplane Sign up for Deezer for free and listen to Jefferson Airplane: discography, top tracks and playlists. Starring at the most iconic rock events of the 1960s - the Woodstock, Monterey and Altamont festivals - Jefferson Airplane had an indelible influence on the flower power decade as pioneers of psyc.. Jefferson Airplane Albums Download by MEGA, Free MP3 320 Kbps in High Digital Audio Quality, All Music Genres from Around the World, Only in Discogc. wv regional jail inmate search Day Two, Performer 14: Jefferson Airplane. Performed Sunday morning, August 17, 7:00-8:45 am. Jefferson Airplane performed early Sunday morning, the last set of a long Saturday Woodstock roster. Left to right: Grace Slick, Spencer Dryden, Marty Balin, Jorma Kaukonen, and Jack Casady (out of frame: Paul Kantner and Nicky Hopkins).PERFORMER "Jefferson Airplane" INDEX 00 09:08:37 INDEX 01 09:10:06 TRACK 05 AUDIO TITLE "Comin' Back To Me" PERFORMER "Jefferson Airplane" INDEX 00 12:07:47 INDEX …Crown of Creation. Crown of Creation is the fourth studio album by the San Francisco psychedelic rock band Jefferson Airplane, and was released by RCA Victor in August 1968. Containing more rock music than previous efforts, the album saw the band continuing their development of psychedelic music, [5] emphasizing acid rock with science fiction ... how much did martin lawrence get paid per episode Soon, though, the Airplane morphed into Jefferson Starship, and Freiberg, alternating on bass and keyboards, was along for what he calls the "whirlwind" of the band's Seventies rebirth ...Marty Balin left the band in 1971. After 1972, Jefferson Airplane effectively split into two groups. Kaukonen and Casady moved on full time to their own band, Hot Tuna. Slick, Kantner, and the remaining members of Jefferson Airplane recruited new members and regrouped as Jefferson Starship in 1974, with Marty Balin eventually joining them.The band featured: Grace Slick (vocals), Marty Balin (vocals and guitar), Paul Kantner (vocals and guitar), Jorma Kaukonen (guitar), Jack Casady (bass), and Spencer Dryden (drums). Founding members also included Signe Toly Anderson and Skip Spence. Later lineups of Jefferson Airplane included Joey Covington on Drums, and Papa John Creach on ... Jefferson Airplane. Follow Artist +. The quintessential San Francisco psychedelic band and a defining force in pop before turning toward political statements in the late '60s. Read Full … harnett county mugshots last 7 days Discography 497 Credits 14 Filmography 9 Album Showing all (9) Issues Average Ratings Reviews Title / Release Date +16 3.34 1,969 54 Jefferson Airplane Takes Off 1966 +43 3.80 11,772 221 Surrealistic Pillow 1967 +27 3.66 3,951 112 After Bathing at Baxter's 1967 +24 3.63 2,629 68 Crown of Creation 1968 +31 3.66 3,569 103 Volunteers 1969 +15 3.21 875 Information on Jefferson Airplane. Complete discography, ratings, reviews and more. Best Albums. ... Jefferson Airplane Takes Off. LP. 65. critic score (2) 71. user score m35a2 common problems (Psychedelic Rock) Jefferson Airplane / Starship Complete Discography (lossless APE/FLAC) :: RuTracker.org (Psychedelic Rock) Jefferson Airplane / Starship Complete Discography (lossless APE/FLAC) Страницы : 1, 2 След. Рок-музыка » Зарубежный Rock » Classic Rock & Hard Rock (lossless) Страница 1 из 2Artist: Jefferson Airplane. Genre: Psychedelic Rock, Folk Rock, Acid Rock. Country: USA. Studio Albums: 1966/2003 - Jefferson Airplane Takes Off (BMG Heritage ‎– 82876 50352 2 USA) 1967/2003 - After Bathing At Baxter's (BMG …Plus Icon Click to expand the Mega Menu. Plus Icon Click to Expand Search Input. Have a News Tip? ... Jefferson Airplane, “Triad” (1968) Pop’s first great paean to the ménage à trois, free ...Jefferson Airplane biography Founded in San Francisco, USA in 1965 - Disbanded in 1972 - Reunited briefly in 1989 Jefferson Airplane is one of the major psychedelic acts from US West Coast, with their great musicianship and their groundbreaking attitude which can be seen in their lyrics and album covers.Jefferson Airplane Discography | Format: 320Kbps/44kHz MP3 (lossy) | Download: Mega | Disc: 10 CDs | Year: 1966 - 1989 | Music: Psychedelic Rock | Country: USA | Soft: EAC | Password: www.discogc.com | Source: https://discogc.com/es | Wikipedia | Official Page Hoobastank MP3 320Kbps [MEGA] By Mp3_Music | June 17, 2022 Rock AlternativoJefferson Airplane biography Founded in San Francisco, USA in 1965 - Disbanded in 1972 - Reunited briefly in 1989 Jefferson Airplane is one of the major psychedelic acts from US West Coast, with their great musicianship and their groundbreaking attitude which can be seen in their lyrics and album covers. ibew 1245 Jefferson Airplane discography; Studio albums: 8: Live albums: 10: Compilation albums: 8: Music videos: 8: Singles: 19: The following is a comprehensive discography of Jefferson Airplane, an American rock band which formed in San Francisco in 1965. Albums Studio albums. Year Album details Peak chart positions ...Join others and track this artist · Jefferson Airplane, a rock band based in San Francisco, California, was one of the pioneering bands of psychedelic rock.The American rock band Jefferson Airplane was formed in San Francisco in the mid-1960s. The group was one of the first to usher in the era of psychedelic rock, and their 1967 album Surrealistic Pillow is often regarded as one of the key recordings of that genre. The band’s most successful single, “Somebody to Love”, was released in 1967 ...Tracklist. 1. Streetmasse : The Ballad of You and Me and Pooneil. 2. Streetmasse : A Small Package of Value Will Come To You, Shortly. 3. Streetmasse : Young Girl Sunday Blues. 4. … car show discount Information on Jefferson Airplane. Complete discography, ratings, reviews and more. Best Albums. ... Jefferson Airplane Takes Off. LP. 65. critic score (2) 71. user scoreJefferson Airplane Jefferson Airplane. San Francisco, California; Psychedelic Rock ; 149 Followers; Jefferson Airplane was the first of the San Francisco psychedelic rock groups of the 1960s to achieve national recognition. Although the Grateful Dead ultimately proved more long-lived and popular, Jefferson Airplane defined ...Artist: Jefferson Airplane Album: Discography Year: 1966-2013 Label: RCA/BMG Heritage, Epic, Iconoclassic/Sony Music Genre: Rock, Psychedelic Rock, Folk Rock, Acid Rock Quality: FLAC (*image, tracks+.cue,log,scans) / MP3 320 kbps Total Size: 9,2 Gb/9,6 Gb American psychedelic rock band from San Francisco, CA. Jefferson Airplane Takes Off Released August 15, 1966 CD Track Listings: 1. Blues From An Airplane (2:10) 2. Let Me In (2:55) 3. Bringing Me Down (2:22) 4. It's No Secret (2:37) 5. Tobacco Road (3:26) 6. Come Up The Years (2:30) 7. Run Around (2:35) 8. Let's Get Together (3:32) 9. Don't Slip Away (2:31) 10. Chauffeur Blues (2:25) 11. raspberry pi pico uart read Jefferson Airplane version [ edit] Grace Slick – co-lead vocals and harmony vocals Paul Kantner – co-lead vocals, harmony vocals and rhythm guitar Marty Balin – co-lead vocals and harmony vocals Jorma Kaukonen – lead guitar Jack Casady – bass guitar Spencer Dryden – drums Featuring Nicky Hopkins – piano David Crosby – sailboat See also [ edit]Jefferson Airplane | 50 Years of Peace & Music Experience Woodstock Today Visit Bethel Woods From concerts to art classes to festivals and drive-thru holiday light shows, Bethel Woods offers year-round experiences dedicated to creating that same sense of community and creativity that existed during Woodstock over 50 years ago. automation engineer salary Jefferson Airplane -White Rabbit- 2:29 Jefferson Airplane - Eskimo Blue Day 6:40 Jefferson Airplane - Volunteers 2:12 Jefferson Airplane - Wild Turkey 4:52 Jefferson Airplane - The Farm 3:16 High Flying Bird 2:34 Jefferson Airplane - White rabbit ( Original Footage Smothers Brother Comedy Hour 1967 ) 2:45 Starship. Bonustracks. 11. Let's Go Together (Alternate Version). 12. Sunrise (Grace's Acoustic Demo). 13. SFX - Jerry Garcia & Mickey Hart.Jefferson Airplane | 50 Years of Peace & Music Experience Woodstock Today Visit Bethel Woods From concerts to art classes to festivals and drive-thru holiday light shows, Bethel Woods offers year-round experiences dedicated to creating that same sense of community and creativity that existed during Woodstock over 50 years ago. b12 injections at home Starring at the most iconic rock events of the 1960s - the Woodstock, Monterey and Altamont festivals - Jefferson Airplane had an indelible influence on the flower power decade as pioneers of psyc.. Jefferson AirplaneInformation on Jefferson Airplane. Complete discography, ratings, reviews and more. Best Albums. ... Jefferson Airplane Takes Off. LP. 65. critic score (2) 71. user score Jefferson Airplane. Follow Artist +. The quintessential San Francisco psychedelic band and a defining force in pop before turning toward political statements in the late '60s. Read Full Biography. Overview. Biography. Discography. Songs.Jefferson Airplane was a rock band based in San Francisco, California, who pioneered psychedelic rock. Formed in 1965, the group defined the San Francisco Sound and was the first from the Bay Area to achieve international commercial success. ... Discography. Jefferson Airplane Takes Off (1966) Surrealistic Pillow (1967) After Bathing at Baxter ... mssb clientserv login